conanlcg
超級版主

[2007] [歐美] [劇情] [WEB-1080P] 薩維奇一家/親情觸我心 The.Savages.2007.1080p.WEBRip.x264-RARBG 2.18GB

-->

帖子完整標題:薩維奇一家/親情觸我心 The.Savages.2007.1080p.WEBRip.x264-RARBG 2.18GB




◎譯  名 薩維奇一家 / 親情觸我心 / 沙煲兄妹日記 / 野蠻家族
◎片  名 The Savages
◎年  代 2007
◎產  地 美國
◎類  別 劇情 / 喜劇
◎語  言 英語 / 德語 / 粵語
◎上映日期 2007-11-28
◎IMDb評分 7.1/10 from 34667 users
◎IMDb鏈接 https://www.imdb.com/title/tt0775529
◎豆瓣評分 7.7/10 from 3582 users
◎豆瓣鏈接 https://movie.douban.com/subject/2081739/
◎片  長 114 分鐘
◎導  演 Tamara Jenkins
◎編  劇 Tamara Jenkins
◎主  演 Laura Linney
      Philip Seymour Hoffman
      Philip Bosco


◎標  簽 美國 | 獨立電影 | 親情 | 美國電影 | 家庭 | PhilipSeymourHoffman | 2007 | 劇情

◎簡  介

  溫迪(勞拉·琳妮 Laura Linney 飾)是個生活在紐約、38歲的劇作家,她的工作只能勉強維持生活,沒有婚姻,與一個有婦之夫維持著不正當關系,生活堪稱一團混亂;她有個生活得很瀟灑的哥哥喬恩(菲利普· 塞默·霍夫曼 Philip Seymour Hoffman 飾),在水牛城做大學教授,看上去春風得意,但也有自己的煩惱——女友即將離開他回東歐,他很傷心,但因不愿結婚沒有挽留。一日,獲悉父親(菲利普·鮑斯科 Philip Bosco 飾)得了老年癡呆,許久未聯系的兄妹二人重聚在一起,將父親安頓到療養院,盡到輪換照料他的責任。在這個麻煩和爭吵不斷過程中,兩兄妹回憶起兒時父親專制、不負責任的往事,對照二人現今各自的孤獨,重新思考了“家庭”的意義,而父親的死亡也終要到來……

◎獲獎情況

  第80屆奧斯卡金像獎(2008)
  最佳女主角(提名) 勞拉·琳妮
  最佳原創劇本(提名) 塔瑪拉·詹金斯

  第65屆金球獎(2008)
  電影類 音樂/喜劇片最佳男主角(提名) 菲利普·塞默·霍夫曼

  第8屆美國電影學會獎(2007)
  年度佳片
Video
ID : 1
Format : AVC
Format/Info : Advanced Video Codec
Format profile : [email protected]
Format settings : CABAC / 4 Ref Frames
Format settings, CABAC : Yes
Format settings, Reference frames : 4 frames
Codec ID : avc1
Codec ID/Info : Advanced Video Coding
Duration : 1 h 54 min
Bit rate : 2 500 kb/s
Width : 1 920 pixels
Height : 1 040 pixels
Display aspect ratio : 1.85:1
Frame rate mode : Constant
Frame rate : 23.976 (23976/1000) FPS
Color space : YUV
Chroma subsampling : 4:2:0
Bit depth : 8 bits
Scan type : Progressive
Bits/(Pixel*Frame) : 0.052
Stream size : 1.99 GiB (92%)
Writing library : x264 core 152 r2851M ba24899
Encoding settings : cabac=1 / ref=4 / deblock=1:-1:-1 / analyse=0x3:0x113 / me=umh / subme=9 / psy=1 / psy_rd=1.00:0.15 / mixed_ref=1 / me_range=24 / chroma_me=1 / trellis=2 / 8x8dct=1 / cqm=0 / deadzone=21,11 / fast_pskip=1 / chroma_qp_offset=-3 / threads=16 / lookahead_threads=4 / sliced_threads=0 / nr=0 / decimate=1 / interlaced=0 / bluray_compat=0 / constrained_intra=0 / bframes=3 / b_pyramid=2 / b_adapt=2 / b_bias=0 / direct=3 / weightb=1 / open_gop=0 / weightp=2 / keyint=250 / keyint_min=25 / scenecut=40 / intra_refresh=0 / rc_lookahead=50 / rc=2pass / mbtree=1 / bitrate=2500 / ratetol=1.0 / qcomp=0.60 / qpmin=0 / qpmax=69 / qpstep=4 / cplxblur=20.0 / qblur=0.5 / vbv_maxrate=31250 / vbv_bufsize=31250 / nal_hrd=none / filler=0 / ip_ratio=1.40 / aq=3:1.00
Encoded date : UTC 2019-10-12 21:21:25
Tagged date : UTC 2019-10-12 21:21:25
Codec configuration box : avcC

Audio
ID : 2
Format : AAC LC
Format/Info : Advanced Audio Codec Low Complexity
Codec ID : mp4a-40-2
Duration : 1 h 54 min
Bit rate mode : Constant
Bit rate : 224 kb/s
Channel(s) : 6 channels
Channel layout : C L R Ls Rs LFE
Sampling rate : 48.0 kHz
Frame rate : 46.875 FPS (1024 SPF)
Compression mode : Lossy
Stream size : 183 MiB (8%)
Language : English
Default : Yes
Alternate group : 1
Encoded date : UTC 2019-10-12 21:21:25
Tagged date : UTC 2019-10-12 21:21:25





1 個附件 售價 大小 下載 時間

The.Savages.2007.1080p.WEBRip.x264-RARBG.torrent 0 金幣 22.36K 49 次 59分鐘前

#1樓
發帖時間:2019-10-13 09:36:43   |   回復數:0
游客組