conanlcg
超級版主

[2006] [日本] [劇情] [BD-1080P] 武士的一分 Love.and.Honor.2006.JAPANESE.1080p.BluRay.x264.DTS-EPiC 19.64GB

-->

帖子完整標題:武士的一分 Love.and.Honor.2006.JAPANESE.1080p.BluRay.x264.DTS-EPiC 19.64GB




◎譯  名 武士的一分 / Bushi no ichibun / Love and Honor / 武士的尊嚴
◎片  名 武士の一分
◎年  代 2006
◎產  地 日本
◎類  別 劇情 / 愛情
◎語  言 日語
◎上映日期 2006-12-01
◎IMDb評分 7.8/10 from 3021 users
◎IMDb鏈接 https://www.imdb.com/title/tt0483578
◎豆瓣評分 7.9/10 from 8326 users
◎豆瓣鏈接 https://movie.douban.com/subject/1483808/
◎片  長 Germany: 121 分鐘(Berlin International Film Festival)
◎導  演 山田洋次 Y?ji Yamada
◎編  劇 山田洋次 Y?ji Yamada / 平松惠美子 Emiko Hiramatsu / 1301387 / 藤澤周平 Shuuhei Fujisawa
◎主  演 木村拓哉
      檀麗
      桃井薰
      笹野高史
      緒形拳


◎標  簽 日本 | 木村拓哉 | 山田洋次 | 日本電影 | 武士 | 2006 | 武士的一分 | 劇情

◎簡  介

  三村新之丞(木村拓哉 飾)是名平凡的下級武士,他的工作是幫藩主試毒,備好的飯菜先由試毒者吃,確認沒有不良反應后才會給主人吃。就在一次試毒中,新之丞雙目失明,失去眼睛無異于廢人,他的命運急轉而下,幸而美貌賢惠的妻子加世(檀麗 飾)幫助下,他才重新面對生活。
  但三村一家由此失去 了生活來源,在親友建議下,為了維持生計,加世拜托上級武士島田藤彌(坂東三津五郎 飾)向藩主求情,希望能保住一半薪俸。可島田以新之丞的薪俸為要挾,強迫加世委身于他。新之丞得知后,無法接受事實,休掉了妻子并決定和島田決一死戰,挽回比生命更加寶貴的武士尊嚴。

◎獲獎情況

  第30屆日本電影學院獎(2007)
  最佳影片(提名)
  最佳導演(提名) 山田洋次
  最佳編劇(提名) 山田洋次 / 平松惠美子 / 山本一郎
  最佳女主角(提名) 檀麗
  最佳男配角 笹野高史
  最佳女配角(提名) 桃井薰
  最佳配樂(提名) 富田勛
  最佳攝影 長沼六男
  最佳美術指導(提名) 出川三男
  最佳照明 中須岳士
  最佳錄音(提名) 岸田和美
  最佳剪輯(提名) 石井巖
  最佳新人 檀麗

  第10屆上海國際電影節(2007)
  金爵獎 最佳影片(提名) 山田洋次
  金爵獎 最佳音樂 富田勛

  第1屆亞洲電影大獎(2007)
  最佳電影(提名)
Video
ID : 1
Format : AVC
Format/Info : Advanced Video Codec
Format profile : [email protected]
Format settings : CABAC / 4 Ref Frames
Format settings, CABAC : Yes
Format settings, Reference frames : 4 frames
Codec ID : V_MPEG4/ISO/AVC
Duration : 2 h 2 min
Bit rate : 21.5 Mb/s
Width : 1 916 pixels
Height : 1 036 pixels
Display aspect ratio : 1.85:1
Frame rate mode : Constant
Frame rate : 23.976 FPS
Color space : YUV
Chroma subsampling : 4:2:0
Bit depth : 8 bits
Scan type : Progressive
Bits/(Pixel*Frame) : 0.452
Stream size : 18.4 GiB (93%)
Writing library : x264 core 148 r2694 3b70645
Encoding settings : cabac=1 / ref=4 / deblock=1:-3:-3 / analyse=0x3:0x133 / me=umh / subme=11 / psy=1 / psy_rd=1.22:0.00 / mixed_ref=1 / me_range=24 / chroma_me=1 / trellis=2 / 8x8dct=1 / cqm=0 / deadzone=21,11 / fast_pskip=0 / chroma_qp_offset=-2 / threads=18 / lookahead_threads=3 / sliced_threads=0 / nr=0 / decimate=0 / interlaced=0 / bluray_compat=0 / constrained_intra=0 / bframes=7 / b_pyramid=2 / b_adapt=2 / b_bias=0 / direct=3 / weightb=1 / open_gop=0 / weightp=2 / keyint=250 / keyint_min=23 / scenecut=40 / intra_refresh=0 / rc_lookahead=120 / rc=crf / mbtree=0 / crf=17.5 / qcomp=0.70 / qpmin=0 / qpmax=35 / qpstep=2 / vbv_maxrate=38000 / vbv_bufsize=30000 / crf_max=0.0 / nal_hrd=none / filler=0 / ip_ratio=1.10 / pb_ratio=1.20 / aq=1:0.60
Language : Japanese
Default : Yes
Forced : No

Audio
ID : 2
Format : DTS
Format/Info : Digital Theater Systems
Codec ID : A_DTS
Duration : 2 h 2 min
Bit rate mode : Constant
Bit rate : 1 509 kb/s
Channel(s) : 6 channels
Channel layout : C L R Ls Rs LFE
Sampling rate : 48.0 kHz
Frame rate : 93.750 FPS (512 SPF)
Bit depth : 24 bits
Compression mode : Lossy
Stream size : 1.29 GiB (7%)
Language : Japanese
Default : Yes
Forced : No

Text
ID : 3
Format : UTF-8
Codec ID : S_TEXT/UTF8
Codec ID/Info : UTF-8 Plain Text
Duration : 2 h 1 min
Bit rate : 33 b/s
Count of elements : 1058
Stream size : 29.6 KiB (0%)
Language : English
Default : Yes
Forced : No

Menu
00:00:00.000 : en:00:00:00.000
00:10:45.395 : en:00:10:45.395
00:20:56.338 : en:00:20:56.338
00:27:55.924 : en:00:27:55.924
00:32:16.017 : en:00:32:16.017
00:38:17.670 : en:00:38:17.670
00:48:57.977 : en:00:48:57.977
00:54:44.531 : en:00:54:44.531
01:02:07.223 : en:01:02:07.223
01:09:38.925 : en:01:09:38.925
01:16:58.155 : en:01:16:58.155
01:24:31.066 : en:01:24:31.066
01:31:41.079 : en:01:31:41.079
01:40:30.316 : en:01:40:30.316
01:47:58.639 : en:01:47:58.639





1 個附件 售價 大小 下載 時間

Love.and.Honor.2006.JAPANESE.1080p.BluRay.x264.DTS-EPiC.torrent 0 金幣 98.75K 378 次 1小時前

#1樓
發帖時間:2019-10-13 08:51:28   |   回復數:0
游客組