conanlcg
超級版主

[2015] [韓國] [劇情] [BD-1080P] 喜馬拉雅 The.Himalayas.2015.KOREAN.1080p.BluRay.x264.DD5.1-EPiC 10.89GB

-->

帖子完整標題:喜馬拉雅 The.Himalayas.2015.KOREAN.1080p.BluRay.x264.DD5.1-EPiC 10.89GB




◎譯  名 喜馬拉雅 / Himalaya / The Himalayas / 喜馬拉雅:返家之路(臺)
◎片  名 ????
◎年  代 2015
◎產  地 韓國
◎類  別 劇情
◎語  言 韓語
◎上映日期 2015-12-16(韓國)
◎IMDb評分 6.4/10 from 803 users
◎IMDb鏈接 http://www.imdb.com/title/tt4253360
◎豆瓣評分 7.3/10 from 5338 users
◎豆瓣鏈接 https://movie.douban.com/subject/24849892/
◎片  長 124分鐘
◎導  演 李石勛 Seok-hoon Lee
◎編  劇 李石勛 Seok-hoon Lee
◎主  演 黃政民 Jeong-min Hwang
      鄭宇 Woo Jeong
      趙成夏 Sung-ha Cho
      金仁權 In-kwon Kim
      羅美蘭 Mi-ran Ra
      鄭有美 Yu-mi Jung
      柳善 Seon Yu


◎標  簽 韓國 | 登山 | 冒險 | 劇情 | 真實改編 | 2015 | 運動 | 溫情

◎簡  介

  電影講述的是韓國登山家樸武宅于2004年在攀登海拔8750M的珠穆朗瑪峰時,不幸遇難。為了尋回同伴的遺骨使他們安息,嚴弘吉(黃政民飾)率團前往珠穆朗瑪峰,開始了新一次遠征。5月29日,嚴弘吉和他的隊員不負眾望,在8700 M處找到了樸武宅的遺體,在冰雪皚皚的世界屋脊之巔 舉行了隆重的按葬儀式,并且立碑為念。當時這件事曝光后,也引發了感動如潮。
  韓國演員黃政民此次在片中飾演亞洲首位完成14座8000米的韓國登山家嚴弘吉一角。該片將由推出了《海云臺》、《舞后》、《快遞驚魂》等影片的JK Film擔當制作,通過《和聲》展現了細膩掌鏡力的康大奎導演將再執導筒。影片還將在尼泊爾等地的雪山實地取景,以展現更加真實的雪山風貌。

◎獲獎情況

  第52屆百想藝術大賞(2016)
  電影類 最佳女配角 羅美蘭
Video
ID : 1
Format : AVC
Format/Info : Advanced Video Codec
Format profile : [email protected]
Format settings : CABAC / 5 Ref Frames
Format settings, CABAC : Yes
Format settings, Reference frames : 5 frames
Codec ID : V_MPEG4/ISO/AVC
Duration : 2 h 4 min
Bit rate : 11.9 Mb/s
Width : 1 920 pixels
Height : 804 pixels
Display aspect ratio : 2.40:1
Frame rate mode : Constant
Frame rate : 23.976 (24000/1001) FPS
Color space : YUV
Chroma subsampling : 4:2:0
Bit depth : 8 bits
Scan type : Progressive
Bits/(Pixel*Frame) : 0.321
Stream size : 10.3 GiB (95%)
Writing library : x264 core 142 r2431+42 c69a006 tMod [[email protected] X86_64]
Encoding settings : cabac=1 / ref=5 / deblock=1:-3:-3 / analyse=0x3:0x133 / me=umh / subme=11 / psy=1 / fade_compensate=0.00 / psy_rd=0.90:0.00 / mixed_ref=1 / me_range=32 / chroma_me=1 / trellis=2 / 8x8dct=1 / cqm=0 / deadzone=21,11 / fast_pskip=0 / chroma_qp_offset=-2 / threads=12 / lookahead_threads=2 / sliced_threads=0 / nr=0 / decimate=0 / interlaced=0 / bluray_compat=0 / constrained_intra=0 / fgo=0 / bframes=8 / b_pyramid=2 / b_adapt=2 / b_bias=0 / direct=3 / weightb=1 / open_gop=0 / weightp=2 / keyint=240 / keyint_min=23 / scenecut=40 / intra_refresh=0 / rc_lookahead=60 / rc=crf / mbtree=0 / crf=16.7000 / qcomp=0.60 / qpmin=0:0:0 / qpmax=69:69:69 / qpstep=4 / vbv_maxrate=40000 / vbv_bufsize=30000 / crf_max=0.0 / nal_hrd=none / filler=0 / ip_ratio=1.40 / pb_ratio=1.30 / aq=1:0.90 / aq-sensitivity=10.00 / aq-factor=1.00:1.00:1.00 / aq2=0 / aq3=0
Language : Korean
Default : Yes
Forced : No

Audio
ID : 2
Format : AC-3
Format/Info : Audio Coding 3
Commercial name : Dolby Digital
Codec ID : A_AC3
Duration : 2 h 4 min
Bit rate mode : Constant
Bit rate : 640 kb/s
Channel(s) : 6 channels
Channel layout : L R C LFE Ls Rs
Sampling rate : 48.0 kHz
Frame rate : 31.250 FPS (1536 SPF)
Bit depth : 16 bits
Compression mode : Lossy
Stream size : 570 MiB (5%)
Language : Korean
Service kind : Complete Main
Default : Yes
Forced : No

Text
ID : 3
Format : UTF-8
Codec ID : S_TEXT/UTF8
Codec ID/Info : UTF-8 Plain Text
Duration : 1 h 59 min
Bit rate : 43 b/s
Count of elements : 1468
Stream size : 38.2 KiB (0%)
Language : English
Default : Yes
Forced : No

Menu
00:00:00.000 : en:00:00:00.000
00:10:59.158 : en:00:10:59.158
00:20:38.863 : en:00:20:38.863
00:28:47.517 : en:00:28:47.517
00:42:37.096 : en:00:42:37.096
00:53:21.698 : en:00:53:21.698
01:04:05.675 : en:01:04:05.675
01:10:50.371 : en:01:10:50.371
01:21:42.231 : en:01:21:42.231
01:34:16.276 : en:01:34:16.276
01:43:43.968 : en:01:43:43.968
01:53:41.898 : en:01:53:41.898





1 個附件 售價 大小 下載 時間

The.Himalayas.2015.KOREAN.1080p.BluRay.x264.DD5.1-EPiC.torrent 0 金幣 54.98K 259 次 1小時前

#1樓
發帖時間:2019-10-13 08:49:42   |   回復數:0
游客組