conanlcg
超級版主

[2009] [其他] [劇情] [BD-1080P] 風聲 The.Message.2009.CHINESE.1080p.BluRay.x264.DTS-EPiC 11.64GB

-->

帖子完整標題:風聲 The.Message.2009.CHINESE.1080p.BluRay.x264.DTS-EPiC 11.64GB




◎譯  名 The Message
◎片  名 風聲
◎年  代 2009
◎產  地 中國大陸
◎類  別 劇情 / 驚悚 / 戰爭 / 犯罪
◎語  言 漢語普通話 / 日語
◎上映日期 2009-09-29(中國大陸)
◎IMDb評分 7.4/10 from 2938 users
◎IMDb鏈接 https://www.imdb.com/title/tt1434423
◎豆瓣評分 8.1/10 from 361034 users
◎豆瓣鏈接 https://movie.douban.com/subject/3734112/
◎片  長 118分鐘
◎導  演 陳國富 Kuo-fu Chen / 高群書 Qunshu Gao
◎編  劇 陳國富 Kuo-fu Chen / 張家魯 Jialu Zhang
◎主  演 周迅 Xun Zhou
      李冰冰 Bingbing Li
      張涵予 Hanyu Zhang
      王志文 Zhiwen Wang
      黃曉明 Xiaoming Huang
      蘇有朋 Alec Su
      英達 Da Ying
      石兆琪 Zhaoqi Shi
      倪大紅 Dahong Ni
      段奕宏 Yihong Duan
      朱旭 Xu Zhu
      劉威葳 Weiwei Liu
      張一白 Yibai Zhang
      吳剛 Gang Wu
      鄧家佳 Jiajia Deng
      劉蕓 Yun Liu
      愛戴 Dai Ai


◎標  簽 諜戰 | 懸疑 | 中國 | 風聲 | 劇情 | 人性 | 2009 | 血腥

◎簡  介

  1942年10月10日,汪偽政權舉行了盛大的國民政府慶典。然而,一系列的軍政要員遇刺事件,讓身為特務處長王田香(王志文 飾)如坐針氈。在對女刺客(劉威葳 飾)的酷刑審問中,他獲得了一條關鍵的情報——代號為老鬼的地下黨已經混入了剿匪司令部。立功心切的王田香立刻向日本皇軍特務機關長武田(黃曉明 飾)做了匯報。二人隨即在裘莊布下了一個圈套,意圖通過放出假消息逼老鬼現身。
  在被懷疑的對象中,有司令的侍從官白小年(蘇有朋 飾)、軍機處長金生火(英達 飾)、剿匪大隊長吳志國(張涵予 飾)、譯電組組長李寧玉(李冰冰 飾)以及行政收發專員顧曉夢(周迅 飾)。在懷疑與排查中,武田與王田香不擇手段軟硬兼施,然而事情的發展卻出乎意料……

◎獲獎情況

  第46屆臺北金馬影展(2009)
  金馬獎 最佳女主角 李冰冰
  金馬獎 最佳女主角(提名) 周迅
  金馬獎 最佳改編劇本(提名) 張家魯 / 陳國富
  金馬獎 最佳美術設計(提名) 肖海航 / 楊浩宇
  金馬獎 最佳造型設計(提名) 葉錦添
  金馬獎 最佳視覺效果(提名) 肖洋 / 胡璇

  第29屆香港電影金像獎(2010)
  最佳亞洲電影(提名)

  第28屆中國電影金雞獎(2011)
  最佳男配角(提名) 黃曉明
  最佳美術(提名) 肖海航 / 楊浩宇

  第30屆大眾電影百花獎(2010)
  最佳故事片(提名)
  最佳導演(提名) 陳國富 / 高群書
  最佳男主角(提名) 黃曉明
  最佳男配角 蘇有朋

  第14屆中國電影華表獎(2011)
  優秀合拍片獎

  第4屆亞洲電影大獎(2010)
  我最喜愛的男女主角 我最喜愛的女主角 李冰冰
  最佳女主角(提名) 李冰冰
  最佳男配角(提名) 黃曉明
  最佳美術指導(提名) 肖海航 / 楊浩宇

  第10屆華語電影傳媒大獎(2010)
  百家傳媒年度致敬電影
  百家傳媒年度致敬電影(提名)
  新世紀十年十佳電影
  最佳女主角(提名) 李冰冰 / 周迅

  第17屆北京大學生電影節(2010)
  最佳影片獎
  最佳女演員獎(提名) 李冰冰
  評委會大獎(提名)
  最受大學生歡迎男演員 黃曉明
Video
ID : 1
Format : AVC
Format/Info : Advanced Video Codec
Format profile : [email protected]
Format settings : CABAC / 5 Ref Frames
Format settings, CABAC : Yes
Format settings, Reference frames : 5 frames
Codec ID : V_MPEG4/ISO/AVC
Duration : 1 h 58 min
Bit rate : 12.6 Mb/s
Width : 1 920 pixels
Height : 830 pixels
Display aspect ratio : 2.35:1
Frame rate mode : Constant
Frame rate : 23.976 (24000/1001) FPS
Color space : YUV
Chroma subsampling : 4:2:0
Bit depth : 8 bits
Scan type : Progressive
Bits/(Pixel*Frame) : 0.329
Stream size : 10.4 GiB (89%)
Writing library : x264 core 148 r2694 3b70645
Encoding settings : cabac=1 / ref=5 / deblock=1:-3:-3 / analyse=0x3:0x133 / me=umh / subme=11 / psy=1 / psy_rd=1.06:0.00 / mixed_ref=1 / me_range=24 / chroma_me=1 / trellis=2 / 8x8dct=1 / cqm=0 / deadzone=21,11 / fast_pskip=0 / chroma_qp_offset=-2 / threads=18 / lookahead_threads=3 / sliced_threads=0 / nr=0 / decimate=0 / interlaced=0 / bluray_compat=0 / constrained_intra=0 / bframes=7 / b_pyramid=2 / b_adapt=2 / b_bias=0 / direct=3 / weightb=1 / open_gop=0 / weightp=2 / keyint=250 / keyint_min=23 / scenecut=40 / intra_refresh=0 / rc_lookahead=120 / rc=crf / mbtree=0 / crf=17.2 / qcomp=0.55 / qpmin=0 / qpmax=35 / qpstep=2 / vbv_maxrate=38000 / vbv_bufsize=30000 / crf_max=0.0 / nal_hrd=none / filler=0 / ip_ratio=1.25 / pb_ratio=1.15 / aq=1:0.90
Language : Chinese
Default : Yes
Forced : No

Audio
ID : 2
Format : DTS
Format/Info : Digital Theater Systems
Codec ID : A_DTS
Duration : 1 h 58 min
Bit rate mode : Constant
Bit rate : 1 509 kb/s
Channel(s) : 6 channels
Channel layout : C L R Ls Rs LFE
Sampling rate : 48.0 kHz
Frame rate : 93.750 FPS (512 SPF)
Bit depth : 24 bits
Compression mode : Lossy
Stream size : 1.25 GiB (11%)
Language : Chinese
Default : Yes
Forced : No

Text
ID : 3
Format : UTF-8
Codec ID : S_TEXT/UTF8
Codec ID/Info : UTF-8 Plain Text
Duration : 1 h 53 min
Bit rate : 40 b/s
Count of elements : 1146
Stream size : 33.5 KiB (0%)
Language : English
Default : Yes
Forced : No

Menu
00:00:00.000 : en:00:00:00.000
00:03:24.704 : en:00:03:24.704
00:06:10.287 : en:00:06:10.287
00:12:51.646 : en:00:12:51.646
00:16:28.905 : en:00:16:28.905
00:19:29.919 : en:00:19:29.919
00:25:34.908 : en:00:25:34.908
00:32:22.482 : en:00:32:22.482
00:39:08.346 : en:00:39:08.346
00:42:21.080 : en:00:42:21.080
00:51:18.033 : en:00:51:18.033
00:53:29.039 : en:00:53:29.039
00:58:16.410 : en:00:58:16.410
01:02:15.023 : en:01:02:15.023
01:06:14.220 : en:01:06:14.220
01:14:22.500 : en:01:14:22.500
01:17:34.441 : en:01:17:34.441
01:19:40.567 : en:01:19:40.567
01:27:45.177 : en:01:27:45.177
01:34:21.823 : en:01:34:21.823
01:38:56.848 : en:01:38:56.848
01:43:10.643 : en:01:43:10.643
01:50:53.730 : en:01:50:53.730
01:55:49.818 : en:01:55:49.818





1 個附件 售價 大小 下載 時間

The.Message.2009.CHINESE.1080p.BluRay.x264.DTS-EPiC.torrent 0 金幣 58.73K 427 次 1小時前

#1樓
發帖時間:2019-10-13 08:47:11   |   回復數:0
游客組