conanlcg
超級版主

[更 早] [其他] [劇情] [BD-1080P] 蜘蛛的策略 The.Spiders.Stratagem.1970.ITALIAN.1080p.BluRay.x264-HANDJOB 8.09GB

-->

帖子完整標題:蜘蛛的策略 The.Spiders.Stratagem.1970.ITALIAN.1080p.BluRay.x264-HANDJOB 8.09GB




◎譯  名 蜘蛛的策略 / The Spider's Stratagem / 蜘蛛策略
◎片  名 Strategia del ragno
◎年  代 1970
◎產  地 意大利
◎類  別 劇情 / 懸疑
◎語  言 意大利語
◎上映日期 1970-08-25(威尼斯電影節) / 1973-03-27(意大利)
◎IMDb評分 6.9/10 from 2190 users
◎IMDb鏈接 https://www.imdb.com/title/tt0066413
◎豆瓣評分 7.4/10 from 233 users
◎豆瓣鏈接 https://movie.douban.com/subject/1296356/
◎片  長 100分鐘
◎導  演 貝納爾多·貝托魯奇 Bernardo Bertolucci
◎編  劇 Jorge Luis Borges / 貝納爾多·貝托魯奇 Bernardo Bertolucci / Eduardo de Gregorio / Marilù Parolini
◎主  演 朱利奧·布洛吉 Giulio Brogi
      阿莉達·瓦利 Alida Valli


◎標  簽 意大利 | 貝納爾多·貝托魯奇 | 貝托魯奇 | 意大利電影 | BernardoBertolucci | 懸疑 | Bernardo_Bertolucci | 1970s

◎簡  介

  布拉吉飾演反法西斯民族英雄阿多斯·曼南尼的兒子,在父親被暗殺的30年后回故鄉出席市長的贈匾儀式,從父親當年情婦的口中得悉暗殺其父的兇手是當地人,乃決心查出真相,父親生前的三位好友向小阿多斯講述父親的事跡,而父親的宿敵貝卡夏則想辦法要把他趕走。最后小阿多斯撥開重重迷霧,發現父親竟是密通法西斯的間諜。眾人在識破其背叛行徑后竟然用追封“烈士”這種兩全其美的方式來處死其父,并維護抵抗者的聲譽。兒子最終也沒有把真相揭露出來,而屈服于這一被蒙蔽的表象。
  貝托魯奇在家鄉意大利拍攝的代表作之一,表現出相當強烈的個人風格,特別表現出他對父輩文化的質疑,但也兼顧了情節的吸引力。貝托魯奇用兒子與父親這兩個表象互相結合又互相背離的關系,試圖對30年代法西斯社會蒙混不清的道德觀進行尖銳批判。
Video
ID : 1
Format : AVC
Format/Info : Advanced Video Codec
Format profile : [email protected]
Format settings : CABAC / 4 Ref Frames
Format settings, CABAC : Yes
Format settings, Reference frames : 4 frames
Codec ID : V_MPEG4/ISO/AVC
Duration : 1 h 37 min
Bit rate : 11.6 Mb/s
Width : 1 846 pixels
Height : 1 080 pixels
Display aspect ratio : 1.709
Frame rate mode : Constant
Frame rate : 24.000 FPS
Color space : YUV
Chroma subsampling : 4:2:0
Bit depth : 8 bits
Scan type : Progressive
Bits/(Pixel*Frame) : 0.242
Stream size : 7.91 GiB (98%)
Writing library : x264 core 157 r2935 545de2f
Encoding settings : cabac=1 / ref=4 / deblock=1:-3:-3 / analyse=0x3:0x133 / me=umh / subme=9 / psy=1 / psy_rd=1.00:0.00 / mixed_ref=1 / me_range=24 / chroma_me=1 / trellis=2 / 8x8dct=1 / cqm=0 / deadzone=21,11 / fast_pskip=0 / chroma_qp_offset=-2 / threads=12 / lookahead_threads=1 / sliced_threads=0 / nr=0 / decimate=1 / interlaced=0 / bluray_compat=0 / constrained_intra=0 / bframes=5 / b_pyramid=2 / b_adapt=2 / b_bias=0 / direct=3 / weightb=1 / open_gop=0 / weightp=2 / keyint=240 / keyint_min=24 / scenecut=40 / intra_refresh=0 / rc_lookahead=50 / rc=crf / mbtree=0 / crf=21.0 / qcomp=0.60 / qpmin=0 / qpmax=69 / qpstep=4 / vbv_maxrate=62500 / vbv_bufsize=78125 / crf_max=0.0 / nal_hrd=none / filler=0 / ip_ratio=1.40 / pb_ratio=1.30 / aq=2:1.00
Default : Yes
Forced : No
Color range : Limited
Color primaries : BT.709
Transfer characteristics : BT.709
Matrix coefficients : BT.709

Audio
ID : 2
Format : AAC LC
Format/Info : Advanced Audio Codec Low Complexity
Codec ID : A_AAC-2
Duration : 1 h 37 min
Bit rate : 258 kb/s
Channel(s) : 2 channels
Channel layout : L R
Sampling rate : 48.0 kHz
Frame rate : 46.875 FPS (1024 SPF)
Compression mode : Lossy
Stream size : 180 MiB (2%)
Language : Italian
Default : Yes
Forced : No

Text
ID : 3
Format : UTF-8
Codec ID : S_TEXT/UTF8
Codec ID/Info : UTF-8 Plain Text
Duration : 1 h 35 min
Bit rate : 40 b/s
Count of elements : 817
Stream size : 28.1 KiB (0%)
Language : English
Default : Yes
Forced : No

Menu
00:00:00.000 : :Chapter 1
00:07:07.333 : :Chapter 2
00:15:04.542 : :Chapter 3
00:22:30.375 : :Chapter 4
00:27:43.125 : :Chapter 5
00:37:33.417 : :Chapter 6
00:45:47.792 : :Chapter 7
00:52:31.000 : :Chapter 8
01:02:39.167 : :Chapter 9
01:07:10.417 : :Chapter 10
01:17:38.292 : :Chapter 11
01:25:15.292 : :Chapter 12





1 個附件 售價 大小 下載 時間

The.Spiders.Stratagem.1970.ITALIAN.1080p.BluRay.x264-HANDJOB.torrent 0 金幣 41.00K 56 次 1小時前

#1樓
發帖時間:2019-10-13 08:45:28   |   回復數:0
游客組